#TITLE:Diary;
#SUBTITLE:Expi3nze;
#ARTIST:Tara N4;
#TITLETRANSLIT:;
#SUBTITLETRANSLIT:;
#ARTISTTRANSLIT:;
#CREDIT:;
#BANNER:bn.png;
#BACKGROUND:bg.png;
#LYRICSPATH:;
#CDTITLE:;
#MUSIC:Diary.mp3;
#OFFSET:-0.169;
#SAMPLESTART:67.679;
#SAMPLELENGTH:17.814;
#SELECTABLE:YES;
#BPMS:0.000=127.981,8.000=127.974,9.000=127.981,17.000=127.974,18.000=127.981,19.000=63.992,19.333=255.986,20.000=127.981,29.000=127.974,30.000=127.981,35.000=127.974,35.500=63.996,35.667=256.023,36.000=127.981,42.000=63.992,42.333=255.986,43.000=63.992,43.333=255.986,44.000=127.981,51.000=63.992,51.333=255.986,52.000=127.981,58.000=63.992,58.333=255.986,59.000=63.992,59.333=255.986,60.000=127.981,68.000=127.974,69.000=127.981,78.000=127.974,79.000=127.981,87.000=127.974,88.000=127.981,97.000=127.974,98.000=127.981,105.000=127.974,106.000=127.981,115.000=127.974,116.000=127.981,124.000=127.974,125.000=127.981,134.000=127.974,135.000=127.981,142.000=127.974,142.500=63.996,142.667=256.023,143.000=127.981,144.000=63.992,144.333=255.986,145.000=127.987,145.500=63.996,145.667=256.023,146.000=63.996,146.167=256.023,146.500=63.996,146.667=256.023,147.000=63.996,147.167=256.023,147.500=63.996,147.667=256.023,148.000=63.992,148.333=255.986,149.000=127.987,149.500=63.996,149.667=256.023,150.000=63.996,150.167=256.023,150.500=63.996,150.667=256.023,151.000=63.996,151.167=256.023,151.500=63.996,151.667=256.023,152.000=63.992,152.333=255.986,153.000=127.987,153.500=63.996,153.667=256.023,154.000=63.996,154.167=256.023,154.500=63.996,154.667=256.023,155.000=63.996,155.167=256.023,155.500=63.996,155.667=256.023,156.000=63.992,156.333=255.986,157.000=63.992,157.333=255.986,158.000=63.992,158.333=255.986,159.000=63.992,159.333=255.986,160.000=63.992,160.333=255.986,161.000=127.987,161.500=63.996,161.667=256.023,162.000=63.996,162.167=256.023,162.500=63.996,162.667=256.023,163.000=63.996,163.167=256.023,163.500=63.996,163.667=256.023,164.000=63.992,164.333=255.986,165.000=127.987,165.500=63.996,165.667=256.023,166.000=63.996,166.167=256.023,166.500=63.996,166.667=256.023,167.000=63.996,167.167=256.023,167.500=63.996,167.667=256.023,168.000=63.992,168.333=255.986,169.000=127.987,169.500=63.996,169.667=256.023,170.000=63.996,170.167=256.023,170.500=63.996,170.667=256.023,171.000=63.996,171.167=256.023,171.500=63.996,171.667=256.023,172.000=63.992,172.333=255.986,173.000=63.992,173.333=255.986,174.000=63.992,174.333=255.986,175.000=63.992,175.333=255.986,176.000=127.981,180.000=127.974,180.500=63.996,180.667=256.023,181.000=127.981,182.000=255.998,182.500=63.993,182.750=255.998,183.250=63.993,183.500=127.987,184.000=127.981,187.000=127.974,188.000=127.981,190.000=63.993,190.250=255.998,190.750=63.993,191.000=255.998,191.500=127.987,192.000=127.981,195.000=127.974,196.000=127.981,203.000=127.974,204.000=127.981,207.000=255.949,207.500=127.974,207.750=63.993,208.000=127.981,215.000=127.974,216.000=127.981,224.000=127.974,225.000=127.981,233.000=127.974,234.000=127.981,239.000=255.949,239.500=127.974,239.750=63.993,240.000=127.981,243.000=63.992,243.333=255.986,244.000=127.981,247.000=63.992,247.333=255.986,248.000=127.981,250.000=255.949,250.500=127.974,250.750=63.993,251.000=127.981,254.000=255.949,254.500=127.974,254.750=63.993,255.000=127.981,258.000=255.949,258.500=127.974,258.750=63.993,259.000=127.981,266.000=255.949,266.500=127.974,266.750=63.993,267.000=127.981,270.000=255.949,270.500=127.974,270.750=63.993,271.000=127.981,274.000=255.949,274.500=127.974,274.750=63.993,275.000=127.981,276.000=63.996,276.167=255.949,276.500=63.996,276.667=255.949,277.000=127.987,277.500=63.996,277.667=255.949,278.000=63.996,278.167=255.949,278.500=127.987,279.000=127.981,280.000=63.992,280.333=255.986,281.000=127.987,281.500=63.996,281.667=255.949,282.000=63.996,282.167=255.949,282.500=63.996,282.667=255.949,283.000=63.996,283.167=255.949,283.500=63.996,283.667=255.949,284.000=63.992,284.333=255.986,285.000=127.987,285.500=63.996,285.667=255.949,286.000=63.996,286.167=255.949,286.500=63.996,286.667=255.949,287.000=63.996,287.167=255.949,287.500=63.996,287.667=255.949,288.000=63.992,288.333=255.986,289.000=127.987,289.500=63.996,289.667=255.949,290.000=63.996,290.167=255.949,290.500=63.996,290.667=255.949,291.000=63.996,291.167=255.949,291.500=63.996,291.667=255.949,292.000=63.992,292.333=255.986,293.000=63.992,293.333=255.986,294.000=63.992,294.333=255.986,295.000=63.992,295.333=255.986,296.000=63.992,296.333=255.986,297.000=127.987,297.500=63.996,297.667=255.949,298.000=63.996,298.167=255.949,298.500=63.996,298.667=255.949,299.000=63.996,299.167=255.949,299.500=63.996,299.667=255.949,300.000=63.992,300.333=255.986,301.000=127.987,301.500=63.996,301.667=255.949,302.000=63.996,302.167=255.949,302.500=63.996,302.667=255.949,303.000=63.996,303.167=255.949,303.500=63.996,303.667=255.949,304.000=63.992,304.333=255.986,305.000=127.987,305.500=63.996,305.667=255.949,306.000=63.996,306.167=255.949,306.500=63.996,306.667=255.949,307.000=63.996,307.167=255.949,307.500=63.996,307.667=255.949,308.000=63.992,308.333=255.986,309.000=63.992,309.333=255.986,310.000=63.992,310.333=255.986,311.000=127.981;
#STOPS:;
#BGCHANGES:;
// cache tags:
#FIRSTBEAT:4.000;
#LASTBEAT:327.000;
#SONGFILENAME:Songs/je/Diary (Tara N4)/Diary.sm;
#HASMUSIC:1;
#HASBANNER:1;
#MUSICLENGTH:149.084;
// end cache tags

//---------------dance-single - ----------------
#NOTES:
     dance-single:
     :
     Easy:
     7:
     0.589,0.658,0.792,0.409,0.084,436.000,118.000,61.000,0.000,8.000:
0000
0000
0000
0000
,
0110
0000
0000
0000
1100
0000
0000
0010
0100
0000
0001
0000
1000
0001
0000
0000
,
0100
1000
0000
0000
0010
0000
0000
0010
0100
0000
0001
0000
0100
0010
0000
0000
,
1000
0001
0000
0000
0100
0000
0000
1000
0010
0000
1000
0000
0100
1000
0000
0000
,
0100
0100
0011
1000
0001
0001
1001
0000
,
0002
0000
0000
0003
0002
0000
0000
0003
0002
0000
2000
0003
0000
3000
2000
0000
,
0000
3000
0000
0000
1100
0000
0001
0000
1000
0000
0010
0000
1000
0000
0001
0000
,
2000
0000
0000
3000
2000
0000
0000
3000
2000
0000
0002
3000
0000
0003
0002
0000
,
0000
0003
0000
0000
0100
0000
0100
0000
0010
0000
1000
0000
0110
0000
0000
0000
,
0110
0001
1100
0001
1000
0100
1010
0001
,
1000
0001
0100
0001
0200
0000
0311
0000
,
1000
0001
0010
0100
1000
0010
0011
1000
,
0100
0001
1000
0001
0100
0001
0020
0000
,
1030
0100
0011
1000
1000
0001
1100
0010
,
0010
1000
0001
1000
0002
0000
1013
0000
,
0100
0010
0001
1000
0100
0010
1001
0000
,
1000
0000
1000
0000
1001
0000
0000
0000
1000
0000
0000
0010
0000
0000
0010
1000
,
0200
0000
0000
0000
,
0302
0000
0020
0000
,
0233
0000
0000
0000
,
0000
0000
0000
0000
0000
0000
0310
0000
1000
0000
0000
0100
0000
0000
0001
0000
,
0102
0100
1000
0010
,
2003
0010
0020
0001
,
3032
0010
0010
0010
,
0010
0010
0010
0010
,
0100
0010
0100
0010
0100
0010
0100
0010
,
1000
0100
0010
1000
0100
0010
1000
0100
0010
1000
0100
0000
0020
0000
0000
0000
,
0033
0000
0000
0000
0000
0000
0100
0000
0010
0000
0000
1000
0000
0000
0010
0001
,
0010
2000
0000
3020
0000
0030
2000
0200
,
3000
0302
0000
2003
0000
3000
0200
0002
,
0300
2003
0000
3200
0000
0300
1100
0001
,
1000
0000
0001
0000
1100
0000
0001
0000
0100
0000
0000
0010
0001
0000
1000
0100
,
0012
0000
0000
0003
0002
0000
0000
0003
0002
0000
2000
0003
0000
3000
2000
0000
,
0000
3000
0002
0000
0000
0000
0203
0000
0000
0000
0300
0000
0200
0000
0000
0000
,
0302
0000
0000
0003
0002
0000
2000
0003
0000
3000
2000
0000
0000
3000
0020
0000
,
1000
0030
0001
0000
1000
0000
0001
0000
1000
0000
0001
0000
1100
0000
0000
0000
,
2000
0000
0000
3000
0011
0000
1000
0000
0011
0000
1000
0000
0011
0000
1000
0000
,
0011
0000
1100
0001
1100
0001
1100
0001
,
1100
0000
0101
0001
1100
0001
1100
0001
,
1100
0110
0110
0110
,
0110
0000
0011
0100
0011
0100
0011
0100
,
0011
0000
0110
0100
0011
0100
0011
0100
,
0011
0000
0101
1000
0101
1000
0101
1000
,
0101
0110
0110
0110
,
0001
0000
1000
0001
0010
0000
0000
1000
,
0100
0000
0001
0000
1100
0000
0000
0000
1100
0000
0000
1010
0000
0000
1010
0000
,
0010
1000
0010
1010
,
0001
0000
0000
0000
0011
0000
0000
0000
0011
0000
0000
1001
0000
0000
1001
0000
,
0010
0100
1000
0001
1000
0001
1000
0001
,
1000
0001
0001
0100
0001
1000
0001
1000
,
0001
1000
0010
0001
1000
0001
1000
0001
,
1000
0000
0010
0000
0001
0000
0000
0000
1000
0100
0000
0000
2100
0000
0000
0000
,
3020
0000
0000
2000
,
3230
0000
0000
0000
,
0302
0000
0000
0000
,
2003
3200
0320
0032
,
2003
0000
0000
0000
,
3200
0000
0000
0000
,
0320
0000
0000
0000
,
0031
0000
1000
0000
0001
0000
1000
0100
0010
0001
0010
0000
1100
0000
0000
0000
,
2000
0100
0000
0010
0000
0010
0110
0000
,
3110
1000
0000
0001
0000
1000
0101
0000
,
0001
1000
0011
1000
0001
0000
0101
1000
,
0001
1000
0011
0100
1000
0000
1100
0001
,
1000
0001
0110
0001
0100
0000
0101
1000
,
0001
1000
0011
0100
1000
0001
0101
1000
,
0010
1000
0011
1000
0010
0000
0011
1000
,
0010
1000
0101
0010
0001
0000
0011
0001
,
1000
0010
1001
0100
0010
0000
1100
0000
,
0011
0011
1100
1100
0101
0101
1000
0000
,
1100
0000
1100
1000
0011
1000
0011
1000
,
0011
0000
1010
0001
1010
0001
1010
0001
,
1010
0000
0011
0100
0011
0100
0011
0100
,
0011
0110
0110
0110
,
0110
0000
0110
1000
0110
1000
0110
1000
,
0110
0000
1010
0001
1010
0001
1010
0001
,
1010
0000
1010
0100
1010
0100
1010
0100
,
1010
0110
0110
0220
,
0000
0000
0000
0330
,
0000
0000
0000
0000
,
0000
0000
0000
0000
,
0000
0000
0000
1000
,
0000
0000
0000
0000
,
0000
0000
0000
0000
,
0000
0000
0000
0000
,
0000
0000
0000
0000
,
0000
0000
0000
0000
,
0000
0000
0000
0000
,
0000
0000
0000
0000
,
0000
0000
0000
0000
,
0000
0000
0000
0000
,
0000
0000
0000
0000
,
0000
0000
0000
0000
,
0000
0000
0000
0000
,
0000
0000
0000
0000
,
0000
0000
0000
0000
,
0000
0000
0000
0000
,
0000
0000
0000
0000
,
0000
0000
0000
0000
,
0000
0000
0000
0000
,
0000
0000
0000
0000
,
0000
0000
0000
0000
,
0000
0000
0000
0000
,
0000
0000
0000
0000
,
0000
0000
0000
0000
,
0000
0000
0000
0000
,
0000
0000
0000
0000
,
0000
0000
0000
0000
,
0000
0000
0000
0000
,
0000
0000
0000
0000
,
0000
0000
0000
0000
,
0000
0000
0000
0000
,
0000
0000
0000
0000
,
0000
0000
0000
0000
,
0000
0000
0000
0000
,
0000
0000
0000
0000
,
0000
0000
0000
0000
,
0000
0000
0000
0000
,
0000
0000
0000
0000
,
0000
0000
0000
0000
,
0000
0000
0000
0000
,
0000
0000
0000
0000
;

//---------------dance-single - ----------------
#NOTES:
     dance-single:
     :
     Medium:
     13:
     0.860,0.905,1.000,1.000,0.184,551.000,156.000,187.000,0.000,42.000:
0000
0000
0000
0000
,
0220
0000
0330
0000
1100
0000
0000
0010
0100
0000
0001
0000
1100
0001
0000
0000
,
0010
1000
0000
0000
1010
0000
0000
0010
0100
0000
0001
0000
0011
1000
0000
0000
,
1000
0001
0000
0000
1100
0000
0000
1000
0010
0000
1000
0000
0101
1000
0000
0000
,
0100
0000
0100
0000
1001
0000
0010
0000
0001
0010
0001
0010
2001
0000
0000
0000
,
3002
0000
0000
0003
0002
0000
0000
0003
0012
0000
2000
0003
0110
3000
2000
0000
,
0100
0000
0000
3000
0000
0000
0000
0000
0000
0000
0000
0000
1100
0000
0000
0000
0000
0000
0001
0000
0000
0000
0000
0000
0010
0000
0000
0100
0000
0000
1000
0000
0000
0000
0000
0000
1000
0000
0100
0000
0010
0000
0001
0000
0000
0000
0000
0000
,
2100
0000
0000
3000
2011
0000
0000
3000
2100
0000
0002
3000
1100
0003
0002
0000
,
0100
0003
0000
0000
0100
0000
0100
0000
0010
1000
0000
0001
0110
0000
0001
0000
,
1100
0000
0001
0000
1100
0000
0001
0000
0100
0000
0100
0000
1010
0000
0001
0001
,
1100
0010
0101
0010
0200
0000
0311
0000
,
1100
0000
0001
0000
0011
0000
0100
0000
1000
0000
0010
0100
0011
0100
1000
0001
,
1100
0001
1001
0100
0101
0001
0020
0000
,
1130
0000
1000
1000
0011
0000
1000
0000
1100
0000
0001
0000
1100
0000
0010
0001
,
0010
0100
0110
1000
0002
0000
1013
0000
,
0100
0010
0101
0010
1100
1000
1010
0010
,
1000
0000
1000
0000
1001
0000
0200
0000
0320
0000
0000
0032
0000
0000
0013
1000
,
0200
0000
0000
0000
,
0302
0000
0020
0000
,
0233
0000
0000
0000
,
0000
0000
0000
0000
0000
0000
0320
0000
2030
0000
0000
3200
0000
0000
0301
0010
,
0102
0000
1100
0000
1000
0100
1010
0100
,
2103
0000
0110
0000
0020
0100
0001
0000
,
3032
1000
0010
1000
0010
1000
0010
1000
,
0010
1000
0010
1000
0010
1000
0010
1000
,
0100
0010
0100
0010
0100
0010
0100
0010
0100
0010
0100
0010
0100
0010
0100
0000
,
1000
0100
0010
0100
1000
0100
0010
0100
1000
0100
0010
0000
0120
0000
0000
0000
,
0033
0000
0000
0000
0000
0000
0200
0000
0320
0000
0000
2030
0000
0000
3010
0001
,
0110
2000
0011
3020
1000
1030
2000
0200
,
3010
0302
1100
2003
0010
3010
0200
0002
,
1300
2003
0110
3200
0001
0301
1100
0001
,
1000
0000
0001
0000
1100
0000
0002
0000
0203
0000
0000
0320
0101
0000
1030
0100
,
0012
0000
1000
0003
0102
0000
0010
0003
0102
0000
2000
0003
0101
3000
2000
0000
,
0010
3000
0002
0000
0110
0000
0203
0000
0010
0000
0310
0000
0210
0000
0000
0000
,
0302
0000
1000
0003
1102
0000
2000
0003
0010
3000
2000
0000
0101
3000
0020
0000
,
1100
0030
0011
0000
1100
0000
0011
0000
1100
0000
0001
0001
1100
0000
0100
0010
,
2000
0000
0000
3000
0011
0000
2000
0000
0002
3000
2000
0003
0002
3000
2000
0003
,
0002
3000
0000
0003
1100
0000
0200
0000
0002
0300
0200
0003
0002
0300
0200
0003
,
0002
0300
0000
0003
0101
0000
0002
0000
2000
0003
0002
3000
2000
0003
0002
3000
,
2000
0003
0000
3000
0220
0000
0000
0330
0220
0000
0000
0330
0220
0000
0000
0330
,
0220
0000
0000
0330
1001
0000
0200
0000
0020
0300
0200
0030
0020
0300
0200
0030
,
0020
0300
0000
0030
0110
0000
0200
0000
0002
0300
0200
0003
0002
0300
0200
0003
,
0002
0300
0000
0003
0101
0000
0200
0000
2000
0300
0200
3000
2000
0300
0200
3000
,
2000
0300
0000
3000
0220
0000
0000
0330
0220
0000
0000
0330
0220
0000
0000
0330
,
0001
0010
1000
0001
0010
0000
0000
1000
,
0100
0000
0001
0000
1100
0000
0001
0000
1100
0000
0000
1001
0000
0000
1010
0000
,
0001
0100
1000
0001
0010
1000
1010
0001
,
0010
0000
1000
0000
0011
0000
1000
0000
0011
0000
0000
1001
0000
0000
1001
0000
,
0010
0100
1010
0001
1010
0001
0011
1000
,
1010
0001
1001
0100
0011
1000
1001
0100
,
0101
1000
0110
0001
1010
0001
1100
0001
,
1100
0000
0010
0000
1001
0000
0000
0000
1000
0100
0000
0010
2100
0000
0000
0000
,
3020
0000
1000
1000
0001
1000
2000
0000
,
3230
0000
0001
0010
1000
0000
0010
0001
,
1302
0000
0010
0100
1000
0010
1000
0010
,
2013
3200
0320
0032
,
2103
0010
0001
0010
0100
0001
0010
0100
,
3200
0010
0001
1000
0010
0001
0010
1000
,
0320
1000
0100
0001
1000
0100
1000
0100
,
0031
0010
0001
0010
0001
0010
1000
0100
0010
0001
0010
0001
1110
0000
0000
0000
,
2000
0200
0000
0320
0000
0032
0110
0003
,
3110
0020
0000
0032
0000
2003
0101
3000
,
0101
1000
1100
0001
2010
0000
3101
1000
,
0101
0100
0011
0100
1002
0000
1103
0001
,
1100
0001
0110
0001
0201
0000
1301
1000
,
0011
1000
0011
0100
1001
0001
0101
0100
,
1010
1000
0011
0001
2100
0000
3011
1000
,
0110
1000
0101
0010
2001
0000
3011
0001
,
1100
0001
1001
0100
0012
0000
1103
1000
,
0011
0000
0011
0000
1100
0000
1100
0000
0101
0000
0101
0000
1000
0100
0010
0001
,
2000
0000
0000
3000
1100
0000
2000
0000
0002
3000
2000
0003
0002
3000
2000
0003
,
0002
3000
0000
0003
1010
0000
0020
0000
0002
0030
0020
0003
0002
0030
0020
0003
,
0002
0030
0000
0003
0101
0000
0200
0000
0020
0300
0200
0030
0020
0300
0200
0030
,
0020
0300
0000
0030
0220
0000
0000
0330
0220
0000
0000
0330
0220
0000
0000
0330
,
0220
0000
0000
0330
0110
0000
2000
0000
0002
3000
2000
0003
0002
3000
2000
0003
,
0002
3000
0000
0003
1010
0000
0020
0000
0002
0030
0020
0003
0002
0030
0020
0003
,
0002
0030
0000
0003
0101
0000
0200
0000
0020
0300
0200
0030
0020
0300
0200
0030
,
0020
0300
0000
0030
0220
0000
0000
0330
0220
0000
0000
0330
0220
0000
0000
0000
,
0000
0000
0000
0330
,
0000
0000
0000
0000
,
0000
0000
0000
0000
,
0000
0000
0000
1000
,
0000
0000
0000
0000
,
0000
0000
0000
0000
,
0000
0000
0000
0000
,
0000
0000
0000
0000
,
0000
0000
0000
0000
,
0000
0000
0000
0000
,
0000
0000
0000
0000
,
0000
0000
0000
0000
,
0000
0000
0000
0000
,
0000
0000
0000
0000
,
0000
0000
0000
0000
,
0000
0000
0000
0000
,
0000
0000
0000
0000
,
0000
0000
0000
0000
,
0000
0000
0000
0000
,
0000
0000
0000
0000
,
0000
0000
0000
0000
,
0000
0000
0000
0000
,
0000
0000
0000
0000
,
0000
0000
0000
0000
,
0000
0000
0000
0000
,
0000
0000
0000
0000
,
0000
0000
0000
0000
,
0000
0000
0000
0000
,
0000
0000
0000
0000
,
0000
0000
0000
0000
,
0000
0000
0000
0000
,
0000
0000
0000
0000
,
0000
0000
0000
0000
,
0000
0000
0000
0000
,
0000
0000
0000
0000
,
0000
0000
0000
0000
,
0000
0000
0000
0000
,
0000
0000
0000
0000
,
0000
0000
0000
0000
,
0000
0000
0000
0000
,
0000
0000
0000
0000
,
0000
0000
0000
0000
,
0000
0000
0000
0000
,
0000
0000
0000
0000
;

//---------------dance-single - ----------------
#NOTES:
     dance-single:
     :
     Hard:
     20:
     1.000,1.000,1.000,1.000,0.231,569.000,400.000,280.000,0.000,257.000:
0000
0000
0000
0000
,
2222
0000
3333
0000
1110
0000
0000
0010
1100
0000
0001
0000
1110
0001
0000
0000
,
0011
1000
0000
0000
1110
0000
0000
0010
0101
0000
0010
0000
0101
0010
0000
0000
,
1100
0001
0000
0000
1110
0000
0000
1000
0011
0000
1000
0000
0111
1000
0000
0000
,
0110
1000
0110
0000
1101
0000
1001
0000
0101
0010
0101
0010
2101
0000
0000
0000
,
3002
0000
0000
0003
1102
0000
0010
0003
0012
0000
2000
0003
0111
3000
2000
0000
,
0101
0000
0000
3000
0000
0000
0000
0000
0000
0000
0000
0000
1110
0000
0000
0000
0000
0000
1010
0000
0000
0000
0000
0000
0011
0000
0000
0110
0000
0000
1000
0000
0000
0000
0000
0000
1011
0000
0100
0000
0010
0000
0001
0000
0000
0000
0000
0000
,
2100
0000
0000
3000
2011
0000
0001
3000
2100
0000
0002
3000
1110
0003
0002
0000
,
1100
0003
0000
0000
0100
0000
0110
0000
0110
1001
0000
0001
1110
0000
0001
0000
,
1110
0000
1010
0000
1011
0000
0011
0000
0011
0000
1001
0000
1110
0000
0011
0110
,
1100
0011
1101
0101
0220
0000
1331
0000
,
1110
0000
1010
0000
1011
0000
0101
0000
0101
0000
0110
1100
0011
0110
1100
0001
,
1100
0011
1011
1100
0101
0101
0022
0000
,
1133
0000
1100
1100
0011
0000
1100
0000
1100
0000
0101
0000
1101
0000
0110
0110
,
1001
0110
0111
0101
0202
0000
1313
0000
,
0110
0110
1101
0011
0110
1100
1101
0011
,
1000
0000
1010
0000
1011
0000
0200
0000
0320
0000
0000
0032
0000
0000
0013
1000
,
0200
0000
0000
0000
,
0302
0000
0000
0000
0000
0000
0000
0000
0020
0000
0000
0000
0100
0100
1000
0000
,
0233
0000
0000
0000
,
0000
0000
0000
0000
0000
0000
0320
0000
2030
0000
0000
3200
0000
0000
0301
0010
,
1102
0000
1110
0000
1100
1100
1010
1010
,
2103
0000
0111
0000
0120
0100
0101
0000
,
3132
1100
0110
1100
0110
1100
0110
1100
,
0110
1100
0110
1100
0110
1100
0110
1100
,
1100
0010
1100
0010
1100
0010
1100
0010
1100
0010
1100
0010
1100
0010
1100
0000
,
0010
0010
0010
0010
0010
0010
0010
0010
0010
0010
0010
0000
1120
0000
0000
0000
,
0033
0000
0000
0000
0000
0000
0200
0000
0320
0000
0000
2030
0000
0000
3010
0001
,
0110
2000
0111
3020
1000
1030
2102
0200
,
3013
0302
1110
2003
0010
3010
0221
0002
,
1330
2003
0111
3200
0001
0301
1110
0001
,
1100
0000
0001
0000
1110
0000
0002
0000
0203
0000
0000
0320
1101
0000
1030
0100
,
0012
0000
1000
0003
1102
0000
0010
0003
0012
0000
2000
0003
0111
3000
2000
0000
,
0011
3000
0002
0000
1110
0000
0203
0000
0010
0000
0310
0000
1221
0000
0000
0000
,
0332
0000
1000
0003
1102
0000
2010
0003
0010
3000
2000
0000
0111
3000
0020
0000
,
1100
0030
0011
0000
1100
0000
0011
0000
1100
0000
0001
0001
2222
0300
3133
0010
,
2200
0000
0000
3300
0111
0000
2200
0000
0022
3300
2200
0033
0022
3300
2200
0033
,
0022
3300
0000
0033
1110
0000
0220
0000
2002
0330
0220
3003
2002
0330
0220
3003
,
2002
0330
0000
3003
1101
0000
0202
0000
2020
0303
0202
3030
2020
0303
0202
3030
,
2020
0303
0000
3030
1221
0000
0000
0330
0220
0000
0000
0330
1221
0000
0000
0330
,
0220
0000
0000
0330
1101
0000
2200
0000
0022
3300
2200
0033
0022
3300
2200
0033
,
0022
3300
0000
0033
1110
0000
0220
0000
2002
0330
0220
3003
2002
0330
0220
3003
,
2002
0330
0000
3003
1101
0000
0202
0000
2020
0303
0202
3030
2020
0303
0202
3030
,
2020
0303
0000
3030
0220
0000
0000
0330
0220
0000
0000
0330
0220
0000
0000
0330
,
0011
1001
1010
1001
0011
0000
0000
1100
,
1100
0000
1001
0000
1101
0000
0001
0000
1110
0000
0000
1011
0000
0000
1110
0000
,
0011
0110
1100
0011
0011
1000
1110
0011
,
0011
0000
1001
0000
1101
0000
1000
0000
0111
0000
0000
1101
0000
0000
1101
0000
,
0011
0110
1100
0011
0011
1000
0111
0011
,
1010
1010
1011
0100
0011
1100
1101
0101
,
0101
1010
1110
0011
1010
0001
1110
0011
,
1010
0000
1010
0000
1101
0000
0000
0000
0100
0100
0000
0010
2100
0000
0000
0000
,
3020
0000
1100
1100
1001
1001
2000
0000
,
3230
0000
1001
0011
1001
0000
0011
0011
,
0312
0000
0010
0110
1100
1010
1010
0110
,
2013
3200
0320
0032
,
2113
0110
0011
0110
0110
0101
0011
0101
,
3201
0011
1001
1010
1010
0011
0011
1001
,
1320
1100
1100
1001
1001
0101
1001
1100
,
1031
0001
0001
0010
0010
0010
1000
1000
1000
0001
0001
0001
1110
0000
0000
0000
,
2110
0200
0000
0320
0000
0032
0220
0333
,
3111
0020
0000
0032
0000
2003
0222
3333
,
0111
0000
1100
0010
1101
0000
1010
0000
2010
0000
0000
0000
3111
1000
0100
0010
,
1001
0000
1100
0000
1001
0000
0101
0000
0102
0000
0000
0000
1113
0000
0001
0001
,
1110
0000
0001
0000
0110
0000
0110
0000
0201
0000
0000
0000
1311
0000
1000
0100
,
0011
0000
1100
0000
1101
0000
0101
0000
0101
0010
0101
1000
0101
0010
0101
0000
,
1010
0000
1010
0000
0111
0000
1010
0000
2010
0000
0000
0000
3111
0000
1000
1000
,
0110
0000
0110
0000
1101
0000
1001
0010
2001
0000
0000
0000
3111
0000
0001
0001
,
1100
0000
0001
0000
1101
0000
1100
0000
1002
0000
0000
0000
1113
0001
1000
0000
,
0111
0000
0111
0000
1110
0000
1101
0000
1101
0000
0111
0000
1000
0100
0010
0001
,
2210
0000
0000
3300
1101
0000
2200
0000
0022
3300
2200
0033
0022
3300
2200
0033
,
0022
3300
0000
0033
1110
0000
0220
0000
2002
0330
0220
3003
2002
0330
0220
3003
,
2002
0330
0000
3003
1101
0000
0202
0000
2020
0303
0202
3030
2020
0303
0202
3030
,
2020
0303
0000
3030
1221
0000
0000
0330
0220
0000
0000
0330
1221
0000
0000
0330
,
0220
0000
0000
0330
1101
0000
2200
0000
0022
3300
2200
0033
0022
3300
2200
0033
,
0022
3300
0000
0033
1110
0000
0220
0000
2002
0330
0220
3003
2002
0330
0220
3003
,
2002
0330
0000
3003
1101
0000
0202
0000
2020
0303
0202
3030
2020
0303
0202
3030
,
2020
0303
0000
3030
0220
0000
0000
0330
0220
0000
0000
0330
2222
0000
0000
0000
,
0000
0000
0000
3333
,
0000
0000
0000
0000
,
0000
0000
0000
0000
,
0000
0000
0000
1000
,
0000
0000
0000
0000
,
0000
0000
0000
0000
,
0000
0000
0000
0000
,
0000
0000
0000
0000
,
0000
0000
0000
0000
,
0000
0000
0000
0000
,
0000
0000
0000
0000
,
0000
0000
0000
0000
,
0000
0000
0000
0000
,
0000
0000
0000
0000
,
0000
0000
0000
0000
,
0000
0000
0000
0000
,
0000
0000
0000
0000
,
0000
0000
0000
0000
,
0000
0000
0000
0000
,
0000
0000
0000
0000
,
0000
0000
0000
0000
,
0000
0000
0000
0000
,
0000
0000
0000
0000
,
0000
0000
0000
0000
,
0000
0000
0000
0000
,
0000
0000
0000
0000
,
0000
0000
0000
0000
,
0000
0000
0000
0000
,
0000
0000
0000
0000
,
0000
0000
0000
0000
,
0000
0000
0000
0000
,
0000
0000
0000
0000
,
0000
0000
0000
0000
,
0000
0000
0000
0000
,
0000
0000
0000
0000
,
0000
0000
0000
0000
,
0000
0000
0000
0000
,
0000
0000
0000
0000
,
0000
0000
0000
0000
,
0000
0000
0000
0000
,
0000
0000
0000
0000
,
0000
0000
0000
0000
,
0000
0000
0000
0000
,
0000
0000
0000
0000
;
